ΦόρουμAngel RadioΕγγραφήΣύνδεσηGames
TOP 5
Κορυφαίοι συγγραφείς
BlacK_DrAgOn (108)
 
peri_by_lamia (19)
 
SYLVIE (16)
 
fido (16)
 
absolutely_cool (11)
 
ProIcons (10)
 
Anarchy (7)
 
^coOb^ (7)
 
DjLeFoS (5)
 
Inf0 (5)
 
Πρόσφατα Θέματα
» Windows Xp - Vista (V1.2 Updated)
Τρι Ιαν 27, 2009 9:59 pm από ProIcons

» Hit And Run 2009 UNRATED DVDRip XviD-ARiGOLD
Δευ Ιαν 26, 2009 1:52 pm από BlacK_DrAgOn

» RocknRolla.(2008) DVDRip.XviD-DiAM. 300MB (HQ)
Παρ Ιαν 16, 2009 12:10 pm από BlacK_DrAgOn

» SAM Broadcaster 4.2.2
Πεμ Ιαν 15, 2009 6:53 pm από Επισκέπτης

» Twilight.[2008.English].V2.TS.HQ.DivX-LTT
Πεμ Ιαν 15, 2009 2:19 pm από BlacK_DrAgOn

» Changeling (2008) TELECiNE XviD-VST
Πεμ Ιαν 15, 2009 10:40 am από BlacK_DrAgOn

» BABES-Widescreen Wallpapers [HQ] Ano ton 18
Τετ Ιαν 14, 2009 1:24 pm από Επισκέπτης

» 100 JPEG Amazing (Premium) Wallpapers 2010x1070 px
Τετ Ιαν 14, 2009 11:46 am από BlacK_DrAgOn

» Beautiful World Wallpapers
Τετ Ιαν 14, 2009 11:27 am από BlacK_DrAgOn

Ακουστε Δυνατα
Angel-RadioAngel-Radio
Angel Radio Online

Μοιραστείτε | 
 

 Hit And Run 2009 UNRATED DVDRip XviD-ARiGOLD

Πήγαινε κάτω 
ΣυγγραφέαςΜήνυμα
BlacK_DrAgOn
Angel Forum Owner
Angel Forum Owner
avatar

Αριθμός μηνυμάτων : 108
Ηλικία : 35
Registration date : 17/11/2008

ΔημοσίευσηΘέμα: Hit And Run 2009 UNRATED DVDRip XviD-ARiGOLD   Σαβ Ιαν 17, 2009 12:04 pm





Η Mary Murdock,μαθήτρια κολεγίου, πιστεύει ότι χτύπησε και σκότωσε μια γάτα με το αυτοκίνητο της στο δρόμο για το σπίτι της, οδηγώντας μεθυσμένη μετά απο ένα πάρτι. Ομως παθαίνει σοκ,καθώς φτάνει στο σπίτι και βλέπει το σώμα ενός άνδρα κάτω απο το Jeep της.....







Σκηνοθεσία: Enda McCallion
Σενάριο: Diane Doniol-Valcroze, Arthur Flam
Ηθοποιοί: Laura Breckenridge, Kevin Corrigan, Christopher Shand, Joe Hansard, Nitin Adsul
Πρεμιέρα (US): 13/01/09http://rapidshare.com/files/182589303/...Run...DailyW.part1.rar
Είδος ταινίας: Drama | Thriller
Χώρα παραγωγής: USA
Βαθμολογία: 4.8/10 ()



Παράθεση :
Format : AVI
Format/Info : Audio Video Interleave
Format profile : OpenDML
File size : 693 MiB
Duration : 1h 23mn
Overall bit rate : 1154 Kbps
Writing application : AVI-Mux GUI 1.17.7, Aug 8 2006 20:59:17

Video
Format : MPEG-4 Visual
Format profile : Streaming Video@L1
Format settings, BVOP : Yes
Format settings, QPel : No
Format settings, GMC : No warppoints
Format settings, Matrix : Default
Codec ID : XVID
Codec ID/Hint : XviD
Duration : 1h 23mn
Bit rate : 701 Kbps
Width : 640 pixels
Height : 272 pixels
Display aspect ratio : 2.35
Frame rate : 23.976 fps
Resolution : 8 bits
Colorimetry : 4:2:0
Scan type : Progressive
Bits/(Pixel*Frame) : 0.168
Stream size : 421 MiB (61%)
Writing library : XviD 1.1.2 (UTC 2006-11-01)

Audio
Format : AC-3
Format/Info : Audio Coding 3
Codec ID : 2000
Bit rate mode : Constant
Bit rate : 448 Kbps
Channel(s) : 6 channels
Channel positions : Front: L C R, Rear: L R, LFE
Sampling rate : 48.0 KHz
Stream size : 269 MiB (39%)
Alignment : Aligned on interleaves
Interleave, duration : 64 ms (1.53 video frames)
Interleave, preload duration : 192 ms
Title : hit and run T80 3_2ch 448Kbps DELAY -49ms







Κώδικας:
LINKS DELETED /q BlAcK_DrAgOn for Send to you.

_________________


Επιστροφή στην κορυφή Πήγαινε κάτω
Επισκόπηση του προφίλ των χρηστών http://angel-radio.heavenforum.com
DjLeFoS
Angel Radio Dj
Angel Radio Dj


Αριθμός μηνυμάτων : 5
Ηλικία : 27
Τόπος : salonika
Registration date : 25/12/2008

ΔημοσίευσηΘέμα: Απ: Hit And Run 2009 UNRATED DVDRip XviD-ARiGOLD   Σαβ Ιαν 17, 2009 2:26 pm

wraios Black_Dragon! Very Happy
ty!
Επιστροφή στην κορυφή Πήγαινε κάτω
Επισκόπηση του προφίλ των χρηστών
BlacK_DrAgOn
Angel Forum Owner
Angel Forum Owner
avatar

Αριθμός μηνυμάτων : 108
Ηλικία : 35
Registration date : 17/11/2008

ΔημοσίευσηΘέμα: Απ: Hit And Run 2009 UNRATED DVDRip XviD-ARiGOLD   Σαβ Ιαν 17, 2009 3:19 pm

DjLeFoS έγραψε:
wraios Black_Dragon! Very Happy
ty!

Gia subs miliste mazi mou Smile an den mporite na tous brite fisika Smile

_________________


Επιστροφή στην κορυφή Πήγαινε κάτω
Επισκόπηση του προφίλ των χρηστών http://angel-radio.heavenforum.com
^coOb^

avatar

Αριθμός μηνυμάτων : 7
Ηλικία : 26
Τόπος : Thessaloniki
Registration date : 22/12/2008

ΔημοσίευσηΘέμα: Απ: Hit And Run 2009 UNRATED DVDRip XviD-ARiGOLD   Κυρ Ιαν 25, 2009 10:23 am

Δεν είναι καθόλου ωραίος απαγορεύτε αύτο που έκανες Black_dragon και μπορούν να μας πιάσουν και να φαμε μεγάλο πούτσο.

Links Deleted.
Επιστροφή στην κορυφή Πήγαινε κάτω
Επισκόπηση του προφίλ των χρηστών
BlacK_DrAgOn
Angel Forum Owner
Angel Forum Owner
avatar

Αριθμός μηνυμάτων : 108
Ηλικία : 35
Registration date : 17/11/2008

ΔημοσίευσηΘέμα: Απ: Hit And Run 2009 UNRATED DVDRip XviD-ARiGOLD   Δευ Ιαν 26, 2009 1:52 pm

^coOb^ έγραψε:
Δεν είναι καθόλου ωραίος απαγορεύτε αύτο που έκανες Black_dragon και μπορούν να μας πιάσουν και να φαμε μεγάλο πούτσο.

Links Deleted.

As piasoun auton pou ekane to upload file mou Razz egw aplos to postaro kai edw Smile

_________________


Επιστροφή στην κορυφή Πήγαινε κάτω
Επισκόπηση του προφίλ των χρηστών http://angel-radio.heavenforum.com
 
Hit And Run 2009 UNRATED DVDRip XviD-ARiGOLD
Επιστροφή στην κορυφή 
Σελίδα 1 από 1
 Παρόμοια θέματα
-
» THE DUKES OF HAZZARD DVDRip SEASON 1 ΕΝΣΩΜΑΤΩΜΕΝΟΙ ΥΠΟΤΙΤΛΟΙ

Δικαιώματα σας στην κατηγορία αυτήΔεν μπορείτε να απαντήσετε στα Θέματα αυτής της Δ.Συζήτησης
 :: Movies-
Μετάβαση σε: